Bands
Featured
Grateful Dead
2,065 shows
16,959 tapes
Phish
Powered by Phish.in
1,760 shows
1,763 tapes
Bands
7 Walkers
68 shows
105 tapes
Akron/Family
39 shows
42 tapes
American Babies
89 shows
108 tapes
Andrew Bird
121 shows
127 tapes
Animal Collective
109 shows
116 tapes
Animal Liberation Orchestra
406 shows
504 tapes
Aquarium Rescue Unit
145 shows
207 tapes
Aqueous
160 shows
247 tapes
Assembly of Dust
268 shows
395 tapes
Barefoot Manner
102 shows
107 tapes
Bela Fleck and the Flecktones
443 shows
550 tapes
Benevento Russo Duo
274 shows
377 tapes
Ben Kweller
31 shows
34 tapes
Bernie Worrell Orchestra
19 shows
27 tapes
Billy Strings
442 shows
877 tapes
Billy & the Kids
17 shows
61 tapes
Blueground Undergrass
178 shows
197 tapes
Blues Traveler
1,160 shows
1,516 tapes
Bobby Previte
17 shows
23 tapes
Bob Weir
275 shows
448 tapes
Boyfriends
2 shows
6 tapes
Brothers Past
451 shows
563 tapes
Built To Spill
391 shows
433 tapes
Cabinet
604 shows
1,080 tapes
Camper Van Beethoven
366 shows
459 tapes
Charlie Hunter
362 shows
468 tapes
Charlie Parr
221 shows
246 tapes
Choice And Company
1 show
1 tape
Chris Forsyth
37 shows
39 tapes
Chris Harford
74 shows
88 tapes
Circles Around The Sun
84 shows
135 tapes
Club d'Elf
456 shows
878 tapes
Cracker
508 shows
648 tapes
Cubensis
787 shows
841 tapes
Daniel Donato
93 shows
126 tapes
Dark Star Orchestra
722 shows
957 tapes
Dave Harrington
14 shows
28 tapes
Dawes
80 shows
91 tapes
Dead and Company
214 shows
687 tapes
Deep Banana Blackout
162 shows
211 tapes
Del McCoury Band
348 shows
523 tapes
Derek Trucks Band
717 shows
1,024 tapes
Disco Biscuits
1,066 shows
1,673 tapes
Dispatch
48 shows
56 tapes
Dogs In A Pile
69 shows
85 tapes
Donna the Buffalo
960 shows
1,182 tapes
Dopapod
342 shows
705 tapes
Drive-By Truckers
768 shows
1,115 tapes
Dub Apocalypse
273 shows
417 tapes
Eddie Roberts
32 shows
40 tapes
Eggy
62 shows
117 tapes
EGi
47 shows
50 tapes
ekoostik hookah
798 shows
1,010 tapes
Electric Beethoven
27 shows
44 tapes
Elliott Smith
143 shows
159 tapes
Eric Krasno
100 shows
147 tapes
Everyone Orchestra
175 shows
278 tapes
Formula 5
80 shows
86 tapes
Fruition
489 shows
742 tapes
Fugazi
24 shows
27 tapes
Furthur
246 shows
1,213 tapes
Garage A Trois
87 shows
122 tapes
Garaj Mahal
301 shows
394 tapes
Garcia Peoples
45 shows
57 tapes
Ghost Light
102 shows
165 tapes
G. Love and Special Sauce
192 shows
223 tapes
G-Nome Project
14 shows
15 tapes
Godspeed You Black Emperor!
407 shows
570 tapes
God Street Wine
351 shows
461 tapes
Goose
204 shows
500 tapes
Grace Potter
351 shows
578 tapes
Grampas Grass
57 shows
68 tapes
Greensky Bluegrass
815 shows
1,347 tapes
Greyboy Allstars
198 shows
272 tapes
GrooveSession
117 shows
142 tapes
Guerilla Toss
46 shows
50 tapes
Guitarmageddon
21 shows
24 tapes
Guster
693 shows
953 tapes
Hard Working Americans
72 shows
129 tapes
Holly Bowling
174 shows
211 tapes
Horseshoes and Hand Grenades
190 shows
253 tapes
Hot Buttered Rum
665 shows
837 tapes
Infamous Stringdusters
562 shows
901 tapes
Jackie Greene
339 shows
458 tapes
Jack Johnson
144 shows
170 tapes
Jazz Mandolin Project
204 shows
249 tapes
Jeff Austin and Chris Castino
12 shows
14 tapes
Jeff Austin And Friends
33 shows
46 tapes
Jeff Austin Band
112 shows
160 tapes
Jerry Joseph and the Jackmormons
1,053 shows
1,396 tapes
Jerry's Middle Finger
142 shows
170 tapes
Joe Russo Presents: Hooteroll? + Plus
2 shows
5 tapes
Joe Russo's Almost Dead
288 shows
966 tapes
John Kadlecik
435 shows
706 tapes
John Mayer
365 shows
442 tapes
John Popper
76 shows
102 tapes
Josh Ritter
74 shows
91 tapes
J.Wail
10 shows
12 tapes
Karina Rykman
49 shows
73 tapes
Keller Williams
991 shows
1,300 tapes
Kikagaku Moyo
39 shows
49 tapes
King Gizzard & the Lizard Wizard
103 shows
158 tapes
Kitchen Dwellers
245 shows
294 tapes
Kung Fu
304 shows
490 tapes
KVHW
76 shows
130 tapes
Leftover Salmon
865 shows
1,130 tapes
Lettuce
409 shows
631 tapes
Little Feat
787 shows
1,004 tapes
Los Lobos
726 shows
864 tapes
Lotus
418 shows
584 tapes
Marco Benevento
194 shows
270 tapes
Marcus King Band
233 shows
314 tapes
Matisyahu
343 shows
441 tapes
Matt Pond PA
12 shows
19 tapes
Max Creek
2,004 shows
2,953 tapes
Mermen
147 shows
157 tapes
moe.
1,841 shows
4,139 tapes
Mogwai
358 shows
444 tapes
Moon Taxi
88 shows
109 tapes
My Morning Jacket
390 shows
557 tapes
Nathan Moore
43 shows
47 tapes
Neighbor
75 shows
133 tapes
Nels Cline
42 shows
48 tapes
New Riders of the Purple Sage
384 shows
563 tapes
North Mississippi Allstars
869 shows
1,351 tapes
O.A.R.
537 shows
668 tapes
Pachyderm
29 shows
30 tapes
Papadosio
124 shows
243 tapes
Percy Hill
155 shows
191 tapes
Perpetual Groove
660 shows
878 tapes
Phil Lesh and Friends
771 shows
2,745 tapes
Pigeons Playing Ping Pong
295 shows
425 tapes
Pink Talking Fish
243 shows
362 tapes
Railroad Earth
1,152 shows
2,037 tapes
RANA
25 shows
26 tapes
Raq
273 shows
394 tapes
Ratdog
660 shows
1,149 tapes
Robert Hunter
234 shows
344 tapes
Rumpke Mountain Boys
373 shows
438 tapes
Ryan Adams
562 shows
706 tapes
Ryan Jewell
10 shows
11 tapes
Ryley Walker
74 shows
93 tapes
Scott Metzger
120 shows
228 tapes
Shafty
28 shows
28 tapes
Smashing Pumpkins
841 shows
1,415 tapes
Sound Tribe Sector 9
554 shows
736 tapes
Spafford
350 shows
516 tapes
Spoon
79 shows
86 tapes
Stanton Moore
183 shows
221 tapes
Steve Kimock
349 shows
562 tapes
Steve Kimock Band
369 shows
550 tapes
Strangefolk
653 shows
1,067 tapes
String Cheese Incident
1,224 shows
1,950 tapes
Surprise Me Mr. Davis
52 shows
59 tapes
Taper's Choice
24 shows
26 tapes
TAUK
168 shows
260 tapes
Tea Leaf Green
726 shows
1,111 tapes
Tedeschi Trucks Band
613 shows
1,101 tapes
Ted Leo and the Pharmacists
23 shows
24 tapes
Tenacious D
51 shows
56 tapes
The Big Wu
392 shows
443 tapes
The Breakfast
467 shows
618 tapes
The California Honeydrops
66 shows
71 tapes
The Clock Reads
64 shows
78 tapes
The Dead
110 shows
384 tapes
The Decemberists
84 shows
100 tapes
The Heavy Pets
156 shows
214 tapes
The Higgs
154 shows
185 tapes
The HippoCampus
25 shows
25 tapes
The Jauntee
650 shows
738 tapes
The Motet
263 shows
345 tapes
The Mountain Goats
387 shows
434 tapes
The National
104 shows
131 tapes
The New Deal
244 shows
320 tapes
The New Mastersounds
260 shows
404 tapes
The Other Ones
76 shows
246 tapes
The Radiators
1,328 shows
1,503 tapes
The Walkmen
17 shows
18 tapes
The War on Drugs
63 shows
83 tapes
The Werks
26 shows
193 tapes
The Wood Brothers
189 shows
244 tapes
Trampled by Turtles
164 shows
196 tapes
Trevor Garrod
12 shows
12 tapes
Trey Anastasio
464 shows
464 tapes
Turkuaz
129 shows
202 tapes
Twiddle
434 shows
716 tapes
Umphrey's McGee
1,703 shows
3,193 tapes
Vulfpeck
30 shows
41 tapes
Warren Zevon
158 shows
211 tapes
Ween
572 shows
1,033 tapes
White Denim
34 shows
46 tapes
Widespread Panic
Powered by PanicStream
2,408 shows
2,645 tapes
Yes
1,417 shows
2,245 tapes
Yonder Mountain String Band
1,339 shows
2,064 tapes
Zebu
20 shows
20 tapes
Zero
452 shows
646 tapes
Zoofunkyou
24 shows
26 tapes
Songs
Sources
SOURCE 1 OF 2
1:50:41
Taper:
rowjimmy
Transferrer:
rowjimmy
SHNID:
kw2010-06-09.smk-h8kh.flac16
Source:
Superlux SMK-H8K/H > KindKables Black Stealths > Busman T-Mod FR2LE > .wav (24bit/48kHz)
Lineage:
Minor Edits (Fades, DC Offset Removal) via WaveLab. Dither/Resample to 16bit/44.1khz with Voxengo R8brain. Tracking via CDWave > Flac Level 8
Taper Notes:
View NotesKeller Williams 2010-06-09 The Otter House Fredericksburg, VA Billed as K. Lovedub and The Sun A Late Night Electronic Experiment Opener: DJ One Drop Source: Superlux SMK-H8K/H > KindKables Black Stealths > Busman T-Mod FR2LE > .wav (24bit/48kHz) Minor Edits (Fades, DC Offset Removal) via WaveLab Dither/Resample to 16bit/44.1khz with Voxengo R8brain Tracking via CDWave > Flac Level 8 Recording & Post by rowjimmy (http://www.rowjimmy.com) -Disc One- 01. DJ One Drop fadeout... 02. Dance music > 03. ?? 04. Fire On The Mountain / More Than A Little > 05. More Dance Music 06. "Don't Hit That One Right There"* > 07. Freeker > 08. More dance music > 09. Freshies > 10. More Dance Music ** Encore: 11. Celebrate Your Youth Notes: This was an all electric, looped, set. No acoustic guitars. Entire set with Scott Sunn on visuals, sampling, & Electronic Wind instrument * Sunn pressed the 'wrong' button on the mixer causing the audio to drop out ** includes George Carlin & Bill Cosby samples. Keller gives thanks to crew, etc. Slight over-adjustment of levels leads to an imbalance on track 2. Despite some fluctuations, it evens out pretty quickly. SHNtool Output: length expanded size cdr WAVE problems fmt ratio filename 0:17.00 2998844 B --- -- ---xx flac 0.5142 kw2010-06-09t01.flac 20:51.16 220714076 B --- -- ---xx flac 0.5828 kw2010-06-09t02.flac 15:52.67 168090428 B --- -- ---xx flac 0.6074 kw2010-06-09t03.flac 10:09.65 107580524 B --- -- ---xx flac 0.6144 kw2010-06-09t04.flac 13:23.03 141656300 B --- -- ---xx flac 0.6252 kw2010-06-09t05.flac 8:15.23 87372140 B --- -- ---xx flac 0.6382 kw2010-06-09t06.flac 7:23.45 78251084 B --- -- ---xx flac 0.6287 kw2010-06-09t07.flac 6:00.40 63598124 B --- -- ---xx flac 0.6151 kw2010-06-09t08.flac 5:37.27 59510348 B --- -- ---xx flac 0.5929 kw2010-06-09t09.flac 19:02.21 201498236 B --- -- ---xx flac 0.6087 kw2010-06-09t10.flac 3:52.36 41009516 B --- -- ---xx flac 0.6072 kw2010-06-09t11.flac 110:45.43 1172279620 B 0.6089 (11 files) No errors occured. FFP: kw2010-06-09t01.flac:ddef689f00809ac6f66aa981b7a4d9a3 kw2010-06-09t02.flac:fa5c434e5fa5c5b03594c37b5d6cf1a6 kw2010-06-09t03.flac:ec9fd0c9abfbb93ccd3de2364bdc9d92 kw2010-06-09t04.flac:37cda34db1644529ad8e71fcb7e52871 kw2010-06-09t05.flac:de0a45b0e4d341879787d7a61570577f kw2010-06-09t06.flac:ab96ad3f29ce34e6ca670b70dd57cc7e kw2010-06-09t07.flac:d787e421d800d393585a6b33e94e96bb kw2010-06-09t08.flac:08d397f63f474e769db022d23285b8ae kw2010-06-09t09.flac:8b644f6232ae7cddfb45d89a40b4565b kw2010-06-09t10.flac:e347c02826573f92e66d012de1ecfefc kw2010-06-09t11.flac:471629701c754bb67e709dbb7f1e9086
SOURCE 2 OF 2
1:50:41
Taper:
rowjimmy
Transferrer:
rowjimmy
SHNID:
kw2010-06-09.smk-h8kh.flac24
Source:
Superlux SMK-H8K/H > KindKables Black Stealths > Busman T-Mod FR2LE > .wav (24bit/48kHz)
Lineage:
Minor Edits (Fades, DC Offset Removal) via WaveLab. Tracking via CDWave > Flac Level 8
Taper Notes:
View NotesKeller Williams 2010-06-09 The Otter House Fredericksburg, VA Billed as K. Lovedub and The Sun A Late Night Electronic Experiment Opener: DJ One Drop Source: Superlux SMK-H8K/H > KindKables Black Stealths > Busman T-Mod FR2LE > .wav (24bit/48kHz) Minor Edits (Fades, DC Offset Removal) via WaveLab Tracking via CDWave > Flac Level 8 Recording & Post by rowjimmy (http://www.rowjimmy.com) -Disc One- 01. DJ One Drop fadeout... 02. Dance music > 03. ?? 04. Fire On The Mountain / More Than A Little > 05. More Dance Music 06. "Don't Hit That One Right There"* > 07. Freeker > 08. More dance music > 09. Freshies > 10. More Dance Music ** Encore: 11. Celebrate Your Youth Notes: This was an all electric, looped, set. No acoustic guitars. Entire set with Scott Sunn on visuals, sampling, & Electronic Wind instrument * Sunn pressed the 'wrong' button on the mixer causing the audio to drop out ** includes George Carlin & Bill Cosby samples. Keller gives thanks to crew, etc. Slight over-adjustment of levels leads to an imbalance on track 2. Despite some fluctuations, it evens out pretty quickly. SHNtool Output: length expanded size cdr WAVE problems fmt ratio filename 0:17.000 4896044 B cxx -- ---xx flac 0.6615 kw2010-06-09_24t01.flac 20:51.213 360349484 B cxx -- ---xx flac 0.7066 kw2010-06-09_24t02.flac 15:52.893 274433324 B cxx -- ---xx flac 0.7224 kw2010-06-09_24t03.flac 10:09.867 175641644 B cxx -- ---xx flac 0.7270 kw2010-06-09_24t04.flac 13:23.040 231275564 B cxx -- ---xx flac 0.7335 kw2010-06-09_24t05.flac 8:15.307 142648364 B cxx -- ---xx flac 0.7417 kw2010-06-09_24t06.flac 7:23.600 127756844 B cxx -- ---xx flac 0.7356 kw2010-06-09_24t07.flac 6:00.533 103833644 B cxx -- ---xx flac 0.7266 kw2010-06-09_24t08.flac 5:37.360 97159724 B cxx -- ---xx flac 0.7126 kw2010-06-09_24t09.flac 19:02.280 328976684 B cxx -- ---xx flac 0.7229 kw2010-06-09_24t10.flac 3:52.480 66954284 B cxx -- ---xx flac 0.7218 kw2010-06-09_24t11.flac 110:45.573 1913925604 B 0.7231 (11 files) No errors occured.